<?xml version="1.0" encoding="UTF-8"?><svg xmlns="http://www.w3.org/2000/svg" xmlns:xlink="http://www.w3.org/1999/xlink" contentScriptType="text/ecmascript" zoomAndPan="magnify" contentStyleType="text/css" enable-background="new 0 0 2678.393 928.069" version="1.1" width="500.0" xml:space="preserve" preserveAspectRatio="xMidYMid meet" viewBox="74.3002 367.422 146.47862 112.63507" height="384.47614" x="0px" y="0px"><font horiz-adv-x="2048"><!-- Arial is a trademark of The Monotype Corporation in the United States and/or other countries. --><!-- Copyright: Copyright 2025 Adobe System Incorporated. All rights reserved. --><font-face font-family="ArialMT" units-per-em="2048" underline-position="-217" underline-thickness="150"/><missing-glyph horiz-adv-x="1536" d="M256,0l0,1280l1024,0l0,-1280M288,32l960,0l0,1216l-960,0z"/><glyph unicode=" " horiz-adv-x="569"/></font><font horiz-adv-x="1000"><!-- Copyright (c) 2014 by MendozaVergara. All rights reserved. --><!-- Copyright: Copyright 2025 Adobe System Incorporated. All rights reserved. --><font-face font-family="Darwin" units-per-em="1000" underline-position="-100" underline-thickness="50"/><missing-glyph horiz-adv-x="286"/><glyph unicode="A" horiz-adv-x="586" d="M468,0l115,0l-241,700l-99,0l-239,-700l114,0l58,189C254,176 332,176 410,189M292,575l93,-302C323,261 262,261 200,273z"/><glyph unicode="E" horiz-adv-x="500" d="M60,0l408,0l0,94l-304,0l0,216l248,0l0,93l-248,0l0,202l297,0l0,95l-401,0z"/><glyph unicode="F" horiz-adv-x="487" d="M60,0l104,0l0,285l248,0l0,94l-248,0l0,226l298,0l0,95l-402,0z"/><glyph unicode="H" horiz-adv-x="588" d="M60,0l104,0l0,315l261,0l0,-315l104,0l0,700l-104,0l0,-291l-261,0l0,291l-104,0z"/><glyph unicode="M" horiz-adv-x="696" d="M60,0l104,0l-3,443l156,-312l58,0l161,320l-4,-451l104,0l0,700l-77,0l-211,-418l-211,418l-77,0z"/><glyph unicode="O" horiz-adv-x="597" d="M56,210C56,71 165,-14 300,-14C435,-14 544,71 544,210l0,281C544,629 435,714 300,714C165,714 56,629 56,491M160,478C160,571 223,620 300,620C377,620 439,571 439,478l0,-255C439,129 377,80 300,80C223,80 160,129 160,223z"/><glyph unicode="R" horiz-adv-x="572" d="M371,94C424,-12 474,-19 571,-4l0,81C542,69 505,64 478,114l-91,169C476,309 530,381 530,467l0,36C530,615 444,700 308,700l-248,0l0,-700l104,0l0,285C201,274 239,271 280,271M164,605l144,0C383,605 425,558 425,491l0,-11C425,414 383,363 304,363C253,363 209,366 164,378z"/><glyph unicode="S" horiz-adv-x="559" d="M95,134l-43,-78C104,17 183,-14 275,-14C437,-14 520,77 520,198C520,344 412,388 306,405C223,419 173,442 173,521C173,577 209,619 290,619C356,619 401,598 450,568l45,76C437,686 378,713 289,713C149,713 72,632 72,518C72,379 160,326 276,309C368,295 417,263 417,190C417,126 364,81 272,81C204,81 143,105 95,134z"/><glyph unicode="T" horiz-adv-x="489" d="M193,0l105,0l0,606l184,0l0,94l-473,0l0,-94l184,0z"/><glyph unicode=" " horiz-adv-x="228"/></font><font horiz-adv-x="1000"><!-- Avenir is a trademark of Linotype GmbH and may be registered in certain jurisdictions. --><!-- Copyright: Copyright 2025 Adobe System Incorporated. All rights reserved. --><font-face font-family="Avenir-Black" units-per-em="1000" underline-position="-75" underline-thickness="50"/><missing-glyph horiz-adv-x="512" d="M222,117l0,67l56,0l0,-67M225,234l-2,17C223,288 227,315 236,332C241,341 247,350 254,360C261,369 271,380 282,391C303,411 317,427 323,439C329,450 332,462 332,474C332,498 325,518 310,535C295,551 277,559 256,559C235,559 218,552 203,537C188,522 178,498 174,464l-50,8C129,520 143,555 168,577C193,598 223,609 259,609C295,609 325,597 348,574C371,550 383,518 383,478C383,457 379,437 371,420C362,402 345,381 320,358C295,336 281,319 277,306C273,293 271,269 271,234M462,50l0,617l-412,0l0,-617M512,718l0,-718l-512,0l0,718z"/><glyph unicode=" " horiz-adv-x="296"/><glyph unicode="0" horiz-adv-x="592" d="M33,354C33,396 37,439 45,482C52,525 66,565 86,600C105,635 132,664 166,687C200,709 243,720 296,720C349,720 392,709 426,687C460,664 487,635 507,600C526,565 540,525 548,482C555,439 559,396 559,354C559,312 555,269 548,226C540,183 526,143 507,108C487,73 460,44 426,22C392,-1 349,-12 296,-12C243,-12 200,-1 166,22C132,44 105,73 86,108C66,143 52,183 45,226C37,269 33,312 33,354M183,354C183,335 184,313 186,287C187,261 192,236 199,212C206,188 218,168 233,151C248,134 269,126 296,126C323,126 344,134 359,151C374,168 386,188 393,212C400,236 405,261 407,287C408,313 409,335 409,354C409,373 408,395 407,421C405,447 400,472 393,496C386,520 374,540 359,557C344,574 323,582 296,582C269,582 248,574 233,557C218,540 206,520 199,496C192,472 187,447 186,421C184,395 183,373 183,354z"/><glyph unicode="1" horiz-adv-x="592" d="M288,540l-142,-125l-85,98l231,195l140,0l0,-708l-144,0z"/><glyph unicode="2" horiz-adv-x="592" d="M49,159l275,247C338,419 352,433 366,449C380,465 387,484 387,505C387,529 378,548 361,562C344,575 323,582 300,582C272,582 250,573 235,556C219,539 210,517 208,492l-150,11C60,540 68,572 81,599C94,626 112,648 134,666C156,684 182,698 212,707C241,716 273,720 308,720C340,720 370,716 398,707C426,698 450,684 471,667C492,649 508,627 520,600C531,573 537,542 537,507C537,484 535,464 530,446C525,427 519,411 511,396C502,381 492,367 481,354C470,341 457,329 444,317l-215,-185l314,0l0,-132l-494,0z"/><glyph unicode="3" horiz-adv-x="592" d="M216,429l49,0C279,429 293,430 306,432C319,434 332,438 343,444C354,449 362,457 369,468C376,478 379,491 379,508C379,529 371,547 354,561C337,575 316,582 291,582C268,582 248,576 233,563C218,550 208,535 203,516l-165,34C46,581 58,607 74,629C90,650 109,668 131,681C153,694 178,704 205,711C232,717 260,720 290,720C321,720 352,716 381,709C410,701 435,689 457,673C479,656 497,636 510,611C523,586 529,557 529,523C529,484 519,450 498,422C477,394 447,376 408,368l0,-3C429,362 448,356 465,346C481,336 495,324 506,309C517,294 526,278 532,259C538,240 541,221 541,200C541,165 534,134 521,107C507,80 489,58 466,41C443,23 416,10 385,1C354,-8 321,-12 286,-12C223,-12 168,3 123,32C77,61 47,108 32,171l158,37C195,183 206,163 223,148C239,133 263,126 295,126C328,126 352,135 368,152C383,169 391,190 391,217C391,237 387,253 379,264C370,275 359,283 346,288C333,293 318,297 301,298C284,299 268,299 251,299l-35,0z"/><glyph unicode="4" horiz-adv-x="592" d="M333,142l-309,0l0,126l289,440l164,0l0,-440l91,0l0,-126l-91,0l0,-142l-144,0M333,512l-2,0l-157,-244l159,0z"/><glyph unicode="5" horiz-adv-x="592" d="M517,576l-281,0l-3,-109C248,472 269,475 296,475C332,475 365,470 395,459C425,448 451,433 473,413C494,392 511,368 523,339C535,310 541,277 541,241C541,201 534,165 521,134C507,103 488,76 464,55C440,33 412,16 379,5C346,-6 310,-12 271,-12C210,-12 158,3 117,33C76,63 47,108 32,169l157,36C193,180 204,159 221,144C238,128 260,120 286,120C318,120 344,130 363,150C382,170 391,195 391,226C391,249 386,269 377,284C367,299 354,311 339,320C323,329 305,335 286,338C267,341 247,343 228,343C203,343 179,341 154,336C129,331 104,325 81,317l8,391l428,0z"/><glyph unicode="6" horiz-adv-x="592" d="M287,455C295,457 303,459 311,460C319,461 327,462 336,462C369,462 400,456 427,444C454,432 478,416 497,395C516,374 531,350 542,322C553,293 558,263 558,231C558,194 551,161 538,132C524,102 505,76 482,55C458,34 430,17 398,6C365,-6 331,-12 294,-12C257,-12 222,-6 190,6C158,17 130,34 107,55C83,76 64,102 51,132C37,161 30,194 30,231C30,256 32,280 37,301C42,322 48,341 56,360C63,379 72,397 83,414C93,431 104,448 115,466l155,242l183,0M408,237C408,269 398,296 377,317C356,338 328,348 294,348C260,348 233,338 212,317C191,296 180,269 180,237C180,205 191,179 212,158C233,137 260,126 294,126C328,126 356,137 377,158C398,179 408,205 408,237z"/><glyph unicode="7" horiz-adv-x="592" d="M387,570l-350,0l0,138l518,0l0,-132l-283,-576l-175,0z"/><glyph unicode="8" horiz-adv-x="592" d="M59,525C59,558 65,586 78,611C90,635 107,655 129,672C150,688 175,700 204,708C233,716 263,720 296,720C329,720 359,716 388,708C417,700 442,688 463,672C484,655 501,635 514,611C527,586 533,558 533,525C533,486 523,453 502,426C481,399 451,379 413,368l0,-2C456,355 488,334 511,305C534,275 545,238 545,194C545,160 538,130 525,104C511,78 493,57 470,40C447,23 420,10 390,1C360,-8 329,-12 296,-12C263,-12 232,-8 202,1C172,10 146,23 123,40C100,57 81,78 68,104C54,130 47,160 47,194C47,238 58,275 81,305C104,334 136,355 179,366l0,2C141,379 112,399 91,426C70,453 59,486 59,525M209,504C209,482 217,463 233,448C249,433 270,425 296,425C322,425 343,433 359,448C375,463 383,482 383,504C383,525 375,544 359,559C343,574 322,582 296,582C270,582 249,574 233,559C217,544 209,525 209,504M197,215C197,190 206,169 224,152C242,135 266,126 296,126C326,126 350,135 368,152C386,169 395,190 395,215C395,240 386,262 368,279C350,296 326,305 296,305C266,305 242,296 224,279C206,262 197,240 197,215z"/><glyph unicode="9" horiz-adv-x="592" d="M305,253C297,251 289,249 281,248C273,247 265,246 256,246C223,246 192,252 165,264C138,276 114,292 95,313C76,334 61,358 50,387C39,415 34,445 34,477C34,514 41,547 55,577C68,606 87,632 111,653C134,674 162,691 194,703C226,714 261,720 298,720C335,720 369,714 402,703C434,691 462,674 486,653C509,632 528,606 542,577C555,547 562,514 562,477C562,452 560,429 555,408C550,387 544,367 537,348C529,329 520,312 510,295C499,278 488,260 477,242l-155,-242l-183,0M184,471C184,439 195,413 216,392C237,371 264,360 298,360C332,360 360,371 381,392C402,413 412,439 412,471C412,503 402,530 381,551C360,572 332,582 298,582C264,582 237,572 216,551C195,530 184,503 184,471z"/><glyph unicode="C" horiz-adv-x="685" d="M535,524C520,543 501,557 479,567C456,577 430,582 401,582C372,582 345,576 320,565C295,554 273,538 255,518C236,497 222,473 212,445C201,417 196,387 196,354C196,321 201,290 212,263C222,235 236,211 254,191C272,170 293,154 318,143C342,132 368,126 396,126C428,126 456,133 481,146C506,159 526,178 542,202l130,-97C642,63 604,32 558,12C512,-8 465,-18 416,-18C361,-18 310,-9 263,8C216,25 176,50 142,83C108,115 82,154 63,200C44,246 34,297 34,354C34,411 44,462 63,508C82,554 108,593 142,626C176,658 216,683 263,700C310,717 361,726 416,726C436,726 457,724 479,721C500,717 522,711 543,703C564,695 584,684 603,671C622,658 640,641 655,622z"/><glyph unicode="D" horiz-adv-x="759" d="M72,708l234,0C363,708 417,702 468,689C519,676 563,656 601,628C639,599 669,562 692,517C714,472 725,417 725,352C725,295 714,244 693,201C671,157 642,120 605,91C568,61 526,38 478,23C430,8 380,0 327,0l-255,0M228,144l81,0C345,144 379,148 410,155C441,162 467,175 490,192C513,209 531,231 544,259C557,286 563,320 563,360C563,395 557,425 544,451C531,476 513,497 491,514C469,531 443,543 414,552C384,560 353,564 320,564l-92,0z"/><glyph unicode="E" horiz-adv-x="630" d="M78,708l481,0l0,-144l-325,0l0,-132l307,0l0,-144l-307,0l0,-144l343,0l0,-144l-499,0z"/><glyph unicode="K" horiz-adv-x="722" d="M78,708l156,0l0,-294l275,294l204,0l-315,-329l342,-379l-218,0l-288,336l0,-336l-156,0z"/><glyph unicode="P" horiz-adv-x="630" d="M72,708l263,0C372,708 406,705 439,698C472,691 500,680 525,664C549,647 568,625 583,598C597,570 604,535 604,493C604,452 597,417 584,389C571,361 552,339 529,322C506,305 478,294 446,287C414,280 379,276 342,276l-114,0l0,-276l-156,0M228,408l104,0C346,408 360,409 373,412C386,415 397,419 408,426C418,432 426,441 433,452C439,463 442,476 442,493C442,511 438,526 430,537C421,548 411,556 398,562C385,568 370,572 354,574C338,575 323,576 308,576l-80,0z"/><glyph unicode="a" horiz-adv-x="537" d="M358,61l-2,0C339,35 317,16 290,5C262,-6 233,-12 202,-12C179,-12 158,-9 137,-2C116,4 97,13 81,26C65,39 52,54 43,73C34,92 29,113 29,138C29,166 34,190 45,209C55,228 69,244 87,257C104,270 124,280 147,287C170,294 193,299 218,302C242,305 266,307 291,308C315,309 337,309 358,309C358,336 349,357 330,373C311,388 288,396 262,396C237,396 215,391 195,381C174,370 156,356 140,338l-80,82C88,446 121,466 158,479C195,492 234,498 274,498C318,498 354,493 383,482C411,471 434,454 451,433C468,412 479,386 486,355C493,324 496,288 496,247l0,-247l-138,0M321,213C310,213 296,213 279,212C262,211 245,208 230,203C214,198 201,191 190,182C179,173 173,160 173,143C173,125 181,112 196,103C211,94 227,90 244,90C259,90 273,92 287,96C300,100 312,106 323,113C334,120 342,130 349,141C355,152 358,166 358,181l0,32z"/><glyph unicode="d" horiz-adv-x="630" d="M563,0l-138,0l0,64l-2,0C417,55 409,47 400,38C390,29 379,20 366,13C353,6 338,0 323,-5C307,-10 291,-12 274,-12C238,-12 205,-6 176,7C147,19 122,36 101,59C80,81 63,107 52,138C41,169 35,202 35,239C35,273 40,306 51,337C61,368 76,395 95,419C114,443 137,462 164,477C191,491 222,498 257,498C288,498 318,493 345,484C372,474 394,457 411,434l2,0l0,322l150,0M425,243C425,280 415,309 394,332C373,355 343,366 305,366C267,366 238,355 217,332C196,309 185,280 185,243C185,206 196,177 217,154C238,131 267,120 305,120C343,120 373,131 394,154C415,177 425,206 425,243z"/><glyph unicode="e" horiz-adv-x="574" d="M513,84C489,53 459,30 422,13C385,-4 347,-12 308,-12C271,-12 236,-6 203,6C170,18 141,35 117,58C92,80 73,107 59,138C45,169 38,204 38,243C38,282 45,317 59,348C73,379 92,406 117,429C141,451 170,468 203,480C236,492 271,498 308,498C343,498 374,492 403,480C431,468 455,451 475,429C494,406 509,379 520,348C531,317 536,282 536,243l0,-47l-348,0C194,167 207,145 227,128C247,111 272,102 301,102C326,102 347,108 364,119C381,130 395,144 408,161M386,298C387,323 378,345 361,363C344,381 321,390 294,390C277,390 263,387 250,382C237,377 227,370 218,362C209,353 202,344 197,333C192,322 189,310 188,298z"/><glyph unicode="f" horiz-adv-x="370" d="M105,366l-99,0l0,120l99,0l0,86C105,599 107,624 112,648C117,671 126,692 139,710C152,728 172,742 197,753C222,763 254,768 295,768C310,768 325,767 340,766C355,765 369,762 383,759l-7,-127C367,635 359,638 352,640C345,641 336,642 327,642C303,642 285,637 273,627C261,616 255,595 255,563l0,-77l111,0l0,-120l-111,0l0,-366l-150,0z"/><glyph unicode="i" horiz-adv-x="260" d="M55,486l150,0l0,-486l-150,0M43,639C43,663 52,684 69,701C86,718 106,726 130,726C154,726 175,718 192,701C209,684 217,663 217,639C217,615 209,595 192,578C175,561 154,552 130,552C106,552 86,561 69,578C52,595 43,615 43,639z"/><glyph unicode="l" horiz-adv-x="260" d="M55,756l150,0l0,-756l-150,0z"/><glyph unicode="n" horiz-adv-x="574" d="M53,486l144,0l0,-66l2,0C204,429 210,439 219,448C228,457 238,466 250,473C262,480 276,486 291,491C306,496 323,498 341,498C379,498 410,492 433,481C456,469 475,453 488,432C501,411 509,387 514,359C519,331 521,301 521,268l0,-268l-150,0l0,238C371,252 371,267 370,282C369,297 366,310 361,323C356,336 348,346 338,354C327,362 312,366 293,366C274,366 258,363 246,356C234,349 225,339 219,328C212,316 208,303 206,288C204,273 203,258 203,242l0,-242l-150,0z"/><glyph unicode="o" horiz-adv-x="610" d="M35,243C35,282 42,317 56,348C70,379 89,406 114,429C138,451 167,468 200,480C233,492 268,498 305,498C342,498 378,492 411,480C444,468 472,451 497,429C521,406 540,379 554,348C568,317 575,282 575,243C575,204 568,169 554,138C540,107 521,80 497,58C472,35 444,18 411,6C378,-6 342,-12 305,-12C268,-12 233,-6 200,6C167,18 138,35 114,58C89,80 70,107 56,138C42,169 35,204 35,243M185,243C185,206 196,177 217,154C238,131 267,120 305,120C343,120 373,131 394,154C415,177 425,206 425,243C425,280 415,309 394,332C373,355 343,366 305,366C267,366 238,355 217,332C196,309 185,280 185,243z"/><glyph unicode="r" horiz-adv-x="407" d="M53,486l150,0l0,-78l2,0C221,438 240,461 262,476C284,491 312,498 345,498C354,498 362,498 371,497C380,496 388,495 395,493l0,-137C384,359 374,362 364,364C353,365 342,366 331,366C302,366 280,362 263,354C246,346 234,335 225,321C216,306 210,289 207,269C204,249 203,227 203,203l0,-203l-150,0z"/></font>
</svg>
